<?xml version="1.0" standalone="no"?>
<!DOCTYPE svg PUBLIC "-//W3C//DTD SVG 1.1//EN" "http://www.w3.org/Graphics/SVG/1.1/DTD/svg11.dtd" >
<svg xmlns="http://www.w3.org/2000/svg">
<metadata>Generated by IcoMoon</metadata>
<defs>
<font id="icomoon" horiz-adv-x="1024">
<font-face units-per-em="1024" ascent="960" descent="-64" />
<missing-glyph horiz-adv-x="1024" />
<glyph unicode="&#x20;" horiz-adv-x="512" d="" />
<glyph unicode="&#xe900;" glyph-name="chevron-down" d="M1004.8 627.2c25.6 25.6 25.6 64 0 89.6s-64 25.6-89.6 0l-403.2-403.2-403.2 403.2c-25.6 25.6-64 25.6-89.6 0s-25.6-64 0-89.6l448-448c25.6-25.6 64-25.6 89.6 0l448 448z" />
<glyph unicode="&#xe901;" glyph-name="chevron-left" d="M243.2 492.8l448 448c25.6 25.6 64 25.6 89.6 0s25.6-64 0-89.6l-403.2-403.2 403.2-403.2c25.6-25.6 25.6-64 0-89.6s-64-25.6-89.6 0l-448 448c-25.6 25.6-25.6 64 0 89.6z" />
<glyph unicode="&#xe902;" glyph-name="chevron-right" d="M780.8 492.8l-448 448c-25.6 25.6-64 25.6-89.6 0s-25.6-64 0-89.6l403.2-403.2-403.2-403.2c-25.6-25.6-25.6-64 0-89.6s64-25.6 89.6 0l448 448c25.6 25.6 25.6 64 0 89.6z" />
<glyph unicode="&#xe903;" glyph-name="chevron-up" d="M19.2 268.8c-25.6-25.6-25.6-64 0-89.6s64-25.6 89.6 0l403.2 403.2 403.2-403.2c25.6-25.6 64-25.6 89.6 0s25.6 64 0 89.6l-448 448c-25.6 25.6-64 25.6-89.6 0l-448-448z" />
<glyph unicode="&#xe904;" glyph-name="linkedin" d="M512-64c-281.6 0-512 230.4-512 512s230.4 512 512 512c281.6 0 512-230.4 512-512s-230.4-512-512-512zM405.333 546.133h-98.133v-311.467h98.133v311.467zM409.6 648.533c0 29.867-21.333 55.467-55.467 55.467-8.533 0-12.8 0-21.333-4.267-4.267-4.267-12.8-8.533-17.067-12.8s-8.533-12.8-12.8-17.067c-4.267-8.533-4.267-12.8-4.267-21.333 0-17.067 4.267-29.867 17.067-42.667 8.533-8.533 25.6-12.8 38.4-12.8 34.133 0 55.467 21.333 55.467 55.467zM465.067 546.133v0 0 0zM465.067 546.133v-311.467h98.133v153.6c0 42.667 8.533 81.067 59.733 81.067s51.2-46.933 51.2-81.067v-153.6h93.867v170.667c0 85.333-17.067 149.333-115.2 149.333-46.933 0-81.067-25.6-93.867-51.2v0 42.667h-93.867z" />
<glyph unicode="&#xe905;" glyph-name="next" d="M512 960c-281.835 0-512-230.165-512-512s230.165-512 512-512 512 230.165 512 512c0 281.835-230.165 512-512 512zM634.128 429.211l-178.495-178.495c-9.394-9.394-28.183-9.394-37.578 0s-9.394 28.183 0 37.578l159.706 159.706-159.706 159.706c-9.394 9.394-9.394 28.183 0 37.578s28.183 9.394 37.578 0l178.495-178.495c9.394-9.394 9.394-28.183 0-37.578z" />
<glyph unicode="&#xe906;" glyph-name="play" d="M512 960c-281.6 0-512-230.4-512-512s230.4-512 512-512 512 230.4 512 512c0 281.6-230.4 512-512 512zM512 38.4c-225.28 0-409.6 184.32-409.6 409.6s184.32 409.6 409.6 409.6 409.6-184.32 409.6-409.6c0-225.28-184.32-409.6-409.6-409.6zM409.6 217.6l307.2 230.4-307.2 230.4z" />
<glyph unicode="&#xe907;" glyph-name="play01" d="M424.229 316.343l219.429 131.657-219.429 131.657zM512 960c-282.819 0-512-229.181-512-512s229.181-512 512-512 512 229.181 512 512-229.181 512-512 512zM668.038 413.867l-219.429-131.657c-29.257-19.505-68.267 4.876-68.267 34.133v263.314c0 34.133 39.010 53.638 68.267 34.133l219.429-131.657c24.381-14.629 24.381-53.638 0-68.267z" />
<glyph unicode="&#xe908;" glyph-name="play02" d="M268.19 940.495c-82.895 48.762-195.048-9.752-195.048-107.276v-775.314c0-97.524 107.276-156.038 195.048-107.276l638.781 385.219c82.895 48.762 82.895 165.79 0 209.676l-638.781 394.971zM199.924 833.219l638.781-385.219-638.781-380.343v765.562z" />
<glyph unicode="&#xe909;" glyph-name="prev" d="M0 448c0-281.835 230.165-512 512-512s512 230.165 512 512c0 281.835-230.165 512-512 512s-512-230.165-512-512zM389.872 466.789l178.495 178.495c9.394 9.394 28.183 9.394 37.578 0s9.394-28.183 0-37.578l-159.706-159.706 159.706-159.706c9.394-9.394 9.394-28.183 0-37.578s-28.183-9.394-37.578 0l-178.495 178.495c-9.394 9.394-9.394 28.183 0 37.578z" />
<glyph unicode="&#xe90a;" glyph-name="share" d="M819.2 238.080c-40.96 0-71.68-15.36-102.4-40.96l-363.52 215.040c5.12 10.24 5.12 25.6 5.12 35.84s0 25.6-5.12 35.84l363.52 209.92c25.6-25.6 61.44-40.96 102.4-40.96 87.040 0 153.6 66.56 153.6 153.6s-66.56 153.6-153.6 153.6-153.6-66.56-153.6-153.6c0-10.24 0-25.6 5.12-35.84l-363.52-209.92c-25.6 25.6-61.44 40.96-102.4 40.96-87.040 0-153.6-66.56-153.6-153.6s66.56-153.6 153.6-153.6c40.96 0 76.8 15.36 102.4 40.96l363.52-215.040c-5.12-10.24-5.12-20.48-5.12-30.72 0-81.92 66.56-148.48 148.48-148.48s148.48 66.56 148.48 148.48-61.44 148.48-143.36 148.48z" />
<glyph unicode="&#xe90b;" glyph-name="twitter" d="M512-64c-281.6 0-512 230.4-512 512s230.4 512 512 512c281.6 0 512-230.4 512-512s-230.4-512-512-512zM755.2 537.6c0 4.267 0 8.533 0 12.8 21.333 17.067 42.667 34.133 55.467 55.467-21.333-8.533-42.667-12.8-64-17.067 25.6 12.8 42.667 34.133 51.2 59.733-21.333-12.8-46.933-21.333-72.533-25.6-42.667 42.667-115.2 46.933-162.133 4.267-29.867-25.6-42.667-68.267-34.133-106.667-89.6 4.267-174.933 46.933-234.667 115.2-29.867-51.2-12.8-115.2 34.133-145.067-17.067 0-34.133 4.267-51.2 12.8v0c0-51.2 38.4-98.133 89.6-106.667-17.067-4.267-34.133-4.267-51.2 0 17.067-42.667 59.733-76.8 106.667-76.8-38.4-29.867-89.6-46.933-140.8-46.933-8.533 0-17.067 0-25.6 0 51.2-34.133 110.933-51.2 174.933-51.2v0c209.067 4.267 324.267 170.667 324.267 315.733z" />
<glyph unicode="&#xe90c;" glyph-name="search" d="M731.429 316.343h-46.811l-17.554 17.554c58.514 64.366 93.623 152.137 93.623 245.76 0 210.651-169.691 380.343-380.343 380.343s-380.343-169.691-380.343-380.343 169.691-380.343 380.343-380.343c93.623 0 181.394 35.109 245.76 93.623l17.554-17.554v-46.811l292.571-292.571 87.771 87.771-292.571 292.571zM380.343 316.343c-146.286 0-263.314 117.029-263.314 263.314s117.029 263.314 263.314 263.314 263.314-117.029 263.314-263.314-117.029-263.314-263.314-263.314z" />
<glyph unicode="&#xe90d;" glyph-name="cross" d="M1024 882.087l-77.913 77.913-434.087-434.087-434.087 434.087-77.913-77.913 434.087-434.087-434.087-434.087 77.913-77.913 434.087 434.087 434.087-434.087 77.913 77.913-434.087 434.087z" />
<glyph unicode="&#xe90e;" glyph-name="menu" horiz-adv-x="1475" d="M0 960h1474.56v-122.88h-1474.56v122.88zM0 509.44h1474.56v-122.88h-1474.56v122.88zM0 58.88h1474.56v-122.88h-1474.56v122.88z" />
<glyph unicode="&#xe90f;" glyph-name="whatsapp" d="M876.8 812.8c-96 96-230.4 147.2-364.8 147.2-281.6 0-512-230.4-512-512 0-89.6 25.6-179.2 70.4-256l-70.4-256 268.8 64c76.8-38.4 160-64 243.2-64 281.6 0 512 230.4 512 512 0 134.4-51.2 262.4-147.2 364.8zM761.6 268.8c-12.8-32-64-57.6-83.2-64-25.6 0-44.8-12.8-153.6 32-128 51.2-211.2 185.6-217.6 192-6.4 12.8-51.2 70.4-51.2 134.4s32 96 44.8 108.8 25.6 12.8 32 12.8c6.4 0 19.2 0 25.6 0s19.2 0 25.6-19.2c12.8-25.6 38.4-89.6 38.4-96s6.4-12.8 0-25.6c0-6.4-6.4-12.8-6.4-19.2-12.8-6.4-19.2-19.2-25.6-25.6 0-6.4-12.8-12.8 0-25.6 6.4-12.8 32-51.2 70.4-89.6 51.2-44.8 89.6-57.6 102.4-64 12.8 0 19.2 0 25.6 6.4s32 38.4 38.4 51.2c12.8 12.8 19.2 12.8 32 6.4s76.8-38.4 89.6-38.4c12.8-12.8 19.2-12.8 19.2-19.2 6.4-6.4 6.4-32-6.4-57.6z" />
<glyph unicode="&#xe910;" glyph-name="radiopublic-a" d="M780.8 960h-537.6c-147.2 0-243.2-96-243.2-243.2v-537.6c0-147.2 96-243.2 243.2-243.2h537.6c147.2 0 243.2 96 243.2 243.2v537.6c0 147.2-96 243.2-243.2 243.2zM825.6 121.6c-115.2 57.6-236.8-57.6-352 0 0 0 0 0 0 0v0c0 0 0 0 0 0 0 32 0 64 0 102.4-89.6-6.4-172.8-57.6-262.4-12.8v563.2c121.6-57.6 236.8 57.6 358.4 0v-96c83.2 6.4 172.8 57.6 256 12.8v-569.6zM633.6 217.6v147.2c12.8 0 19.2 6.4 32 6.4 44.8 12.8 64 38.4 64 83.2v76.8c0 44.8-12.8 76.8-64 57.6-38.4 0-70.4-12.8-96-12.8v-371.2c19.2 6.4 38.4 6.4 64 12.8zM633.6 531.2c6.4 0 6.4 0 12.8 0 12.8 6.4 19.2-6.4 19.2-19.2 0-19.2 0-38.4 0-64 0-12.8 0-19.2-19.2-25.6-6.4 0-6.4 0-12.8 0v108.8zM467.2 352v128c0 25.6-19.2 38.4-25.6 38.4 12.8 6.4 25.6 19.2 25.6 51.2 0 19.2 0 44.8 0 64 0 38.4-19.2 57.6-57.6 51.2-32-12.8-64-19.2-102.4-25.6v-371.2c19.2 0 44.8 6.4 64 12.8v160c6.4 0 6.4 0 12.8 6.4 12.8 0 19.2 0 19.2-19.2v-108.8c0-19.2 0-25.6 6.4-25.6 19.2 0 38.4 6.4 64 6.4 0 6.4 0 12.8 0 25.6-6.4 0-6.4 0-6.4 6.4zM403.2 550.4c0-19.2-6.4-25.6-19.2-25.6-6.4 0-6.4 0-12.8 0v89.6c6.4 0 12.8 0 12.8 6.4 12.8 0 19.2 0 19.2-19.2v-51.2zM473.6 345.6c0-6.4 0-12.8 0-25.6 0 0 0 0 0 0v25.6c0 0 0 0 0 0zM473.6 569.6v57.6c0 0 0 0 0 0 0-19.2 0-38.4 0-57.6 0 0 0 0 0 0zM473.6 326.4c0 6.4-6.4 12.8-6.4 19.2l6.4-19.2c0-6.4 0-6.4 0 0v0z" />
<glyph unicode="&#xe911;" glyph-name="pinterest" d="M890.88 960h-757.76c-71.68 0-133.12-61.44-133.12-133.12v-757.76c0-71.68 61.44-133.12 133.12-133.12h757.76c71.68 0 133.12 61.44 133.12 133.12v757.76c0 71.68-61.44 133.12-133.12 133.12zM568.32 279.040c-46.080 0-92.16 25.6-107.52 56.32 0 0-25.6-102.4-30.72-117.76-20.48-66.56-71.68-138.24-76.8-143.36s-10.24-5.12-10.24 0c0 10.24-15.36 97.28 0 163.84l56.32 235.52c0 0-15.36 25.6-15.36 66.56 0 66.56 35.84 112.64 81.92 112.64 40.96 0 56.32-30.72 56.32-66.56 0-40.96-25.6-97.28-35.84-153.6-10.24-46.080 25.6-81.92 66.56-81.92 81.92 0 138.24 107.52 138.24 230.4 0 97.28-66.56 168.96-179.2 168.96-128 0-209.92-97.28-209.92-204.8 0-35.84 10.24-66.56 30.72-87.040 10.24-10.24 10.24-15.36 5.12-25.6 0-10.24-5.12-25.6-10.24-35.84s-10.24-15.36-20.48-10.24c-61.44 25.6-87.040 92.16-87.040 163.84 0 122.88 102.4 271.36 312.32 271.36 163.84 0 276.48-117.76 276.48-250.88-5.12-163.84-97.28-291.84-240.64-291.84z" />
<glyph unicode="&#xe912;" glyph-name="breaker" horiz-adv-x="992" d="M568.192 410.528c6.24 0 18.72 0 24.96 0 43.712-6.24 81.184-43.712 93.664-81.184 6.24-12.48 12.48-31.232 12.48-49.952l6.24-18.72h18.72c149.856 6.24 274.72 124.864 274.72 280.96 0 224.768-193.568 418.336-487.040 418.336-124.864 0-237.28-43.712-324.672-118.624-112.384-93.664-187.328-231.040-187.328-393.376 0-43.712 6.24-81.184 12.48-118.624 31.232-137.376 124.864-256 243.52-324.672 74.912-43.712 162.336-68.672 249.76-68.672 24.96 0 43.712 0 68.672 6.24 131.136 18.72 249.76 87.424 330.912 187.328l6.24 6.24-12.48 37.472-18.72-6.24c-62.432-18.72-124.864-24.96-187.328-24.96-49.952 0-106.144 6.24-156.096 18.72-43.712 6.24-81.184 43.712-93.664 87.424-6.24 6.24-6.24 18.72-6.24 31.232 0 31.232 12.48 62.432 31.232 81.184 24.96 31.232 56.192 49.952 99.904 49.952zM512 910.048c274.72 0 437.088-174.816 437.088-374.624 0-118.624-93.664-218.528-212.288-231.040-6.24 12.48-6.24 24.96-6.24 31.232-74.912 231.040-249.76 412.096-480.768 493.28 74.912 56.192 162.336 81.184 262.24 81.184zM49.952 448c0 137.376 62.432 268.48 162.336 349.664 187.328-62.432 337.184-187.328 430.816-355.904-18.72 6.24-31.232 12.48-43.712 12.48-49.952 12.48-106.144 18.72-162.336 18.72-137.376 0-268.48-37.472-380.864-99.904-6.24 24.96-6.24 49.952-6.24 74.912zM530.72 110.816c49.952-12.48 106.144-18.72 162.336-18.72 43.712 0 87.424 6.24 124.864 12.48-62.432-56.192-143.616-99.904-237.28-112.384-31.232 37.472-62.432 81.184-87.424 131.136 12.48-6.24 24.96-12.48 37.472-12.48zM524.48-14.048c-6.24 0-12.48 0-12.48 0-74.912 0-149.856 18.72-212.288 49.952 18.72 81.184 49.952 156.096 93.664 224.768 0-12.48 6.24-24.96 6.24-37.472 24.96-87.424 74.912-168.576 124.864-237.28zM430.816 398.048c-81.184-93.664-143.616-212.288-181.088-337.184-93.664 62.432-162.336 149.856-187.328 262.24 112.384 62.432 237.28 99.904 374.624 99.904 6.24 0 12.48 0 24.96 0-12.48-6.24-18.72-18.72-31.232-24.96z" />
<glyph unicode="&#xe913;" glyph-name="overcast" d="M249.6 185.6c-64 64-108.8 160-108.8 262.4s38.4 192 108.8 262.4l32-32c-51.2-64-89.6-140.8-89.6-230.4s38.4-166.4 96-224l-38.4-38.4zM352 288c-38.4 44.8-64 96-64 160s25.6 115.2 64 160l32-32c-32-32-51.2-76.8-51.2-128s19.2-96 51.2-128l-32-32zM640 320c32 32 51.2 76.8 51.2 128s-19.2 96-51.2 128l32 32c38.4-38.4 64-96 64-160s-25.6-115.2-64-160l-32 32zM774.4 185.6l-32 32c51.2 64 89.6 140.8 89.6 230.4s-38.4 166.4-96 224l32 32c64-64 108.8-160 108.8-262.4 0-96-38.4-185.6-102.4-256zM512 915.2c-256 0-467.2-211.2-467.2-467.2 0-204.8 134.4-377.6 320-441.6l121.6 358.4c-38.4 12.8-64 44.8-64 83.2 0 51.2 38.4 89.6 89.6 89.6s89.6-38.4 89.6-89.6c0-38.4-25.6-70.4-57.6-83.2l121.6-358.4c185.6 64 320 236.8 320 441.6-6.4 256-217.6 467.2-473.6 467.2zM569.6-12.8c-19.2 12.8-38.4 32-57.6 51.2-19.2-19.2-38.4-38.4-57.6-51.2 19.2 0 38.4-6.4 57.6-6.4s38.4 0 57.6 6.4zM537.6 70.4c25.6-25.6 51.2-51.2 83.2-76.8 0 0 6.4 0 6.4 0l-51.2 128c-12.8-19.2-25.6-38.4-38.4-51.2zM512 102.4c12.8 19.2 32 44.8 44.8 64l-44.8 115.2-44.8-108.8c12.8-25.6 25.6-51.2 44.8-70.4zM403.2-6.4c25.6 19.2 51.2 44.8 76.8 70.4-12.8 12.8-25.6 32-38.4 44.8l-38.4-115.2c0 0 0 0 0 0zM512-64c-281.6 0-512 230.4-512 512s230.4 512 512 512c281.6 0 512-230.4 512-512s-230.4-512-512-512z" />
<glyph unicode="&#xe914;" glyph-name="tumblr" d="M926.72 960h-829.44c-56.32 0-97.28-40.96-97.28-97.28v-829.44c0-51.2 40.96-97.28 97.28-97.28h829.44c51.2 0 97.28 40.96 97.28 97.28v829.44c0 56.32-40.96 97.28-97.28 97.28zM593.92 79.36c-158.72-5.12-220.16 112.64-220.16 194.56v245.76h-71.68v92.16c107.52 40.96 138.24 143.36 143.36 199.68 0 5.12 5.12 5.12 5.12 5.12h107.52v-189.44h148.48v-112.64h-148.48v-230.4c0-30.72 10.24-71.68 71.68-71.68 20.48 0 46.080 5.12 61.44 10.24v0l35.84-107.52c-15.36-10.24-76.8-35.84-133.12-35.84z" />
<glyph unicode="&#xe915;" glyph-name="messenger" d="M512 949.76c-276.48 0-496.64-209.92-496.64-465.92 0-143.36 71.68-276.48 184.32-358.4v-179.2l168.96 92.16c46.080-10.24 92.16-20.48 143.36-20.48 276.48 0 496.64 209.92 496.64 465.92s-220.16 465.92-496.64 465.92zM563.2 325.12l-128 133.12-245.76-138.24 271.36 291.84 128-133.12 245.76 138.24-271.36-291.84z" />
<glyph unicode="&#xe916;" glyph-name="hackernews" d="M0 960v-1024h1024v1024h-1024zM558.080 381.44v-266.24h-97.28v271.36l-209.92 399.36h117.76l112.64-230.4c10.24-30.72 20.48-56.32 30.72-87.040 10.24 25.6 25.6 56.32 40.96 87.040l112.64 230.4h107.52l-215.040-404.48z" />
<glyph unicode="&#xe917;" glyph-name="facebook" d="M966.4 960h-908.8c-32 0-57.6-25.6-57.6-57.6v-908.8c0-32 25.6-57.6 57.6-57.6h492.8v396.8h-134.4v153.6h134.4v115.2c0 134.4 83.2 204.8 198.4 204.8 57.6 0 102.4-6.4 121.6-6.4v-140.8h-83.2c-64 0-76.8-32-76.8-76.8v-96h153.6l-19.2-153.6h-140.8v-396.8h262.4c32 0 57.6 25.6 57.6 57.6v908.8c0 32-25.6 57.6-57.6 57.6z" />
<glyph unicode="&#xe918;" glyph-name="linkedin-a" d="M947.2 960h-870.4c-20.48 0-40.96-10.24-51.2-20.48-15.36-15.36-25.6-35.84-25.6-56.32v-870.4c0-20.48 10.24-40.96 20.48-51.2 15.36-15.36 35.84-20.48 51.2-20.48h870.4c20.48 0 40.96 10.24 51.2 20.48s20.48 35.84 20.48 51.2v870.4c0 20.48-10.24 40.96-20.48 51.2-5.12 15.36-25.6 25.6-46.080 25.6zM307.2 89.6h-153.6v486.4h153.6v-486.4zM230.4 642.56c-15.36 0-35.84 5.12-51.2 15.36s-25.6 25.6-30.72 40.96c-5.12 15.36-10.24 35.84-5.12 51.2s10.24 30.72 20.48 46.080c15.36 10.24 30.72 20.48 46.080 25.6s35.84 0 51.2-5.12c15.36-10.24 30.72-20.48 40.96-35.84s15.36-30.72 15.36-51.2c0-10.24 0-25.6-5.12-35.84-5.12-5.12-10.24-15.36-20.48-25.6-10.24-5.12-20.48-15.36-30.72-15.36-10.24-5.12-20.48-10.24-30.72-10.24zM870.4 89.6h-153.6v266.24c0 76.8-35.84 102.4-76.8 102.4-46.080 0-92.16-35.84-92.16-107.52v-261.12h-153.6v486.4h148.48v-66.56c20.48 30.72 71.68 81.92 153.6 81.92 87.040 0 179.2-51.2 179.2-199.68l-5.12-302.080z" />
<glyph unicode="&#xe919;" glyph-name="twitter-a" d="M322.56 43.52c384 0 599.040 312.32 599.040 583.68 0 10.24 0 15.36 0 25.6 40.96 30.72 76.8 66.56 102.4 107.52-35.84-15.36-76.8-25.6-122.88-30.72 46.080 25.6 76.8 66.56 92.16 112.64-40.96-25.6-87.040-40.96-133.12-51.2-30.72 30.72-71.68 56.32-117.76 61.44s-92.16 0-133.12-20.48c-40.96-20.48-71.68-56.32-92.16-97.28s-25.6-87.040-15.36-133.12c-81.92 5.12-163.84 25.6-235.52 61.44-76.8 35.84-143.36 92.16-194.56 153.6-25.6-46.080-35.84-97.28-25.6-148.48s46.080-97.28 87.040-122.88c-30.72 0-61.44 5.12-92.16 25.6v-5.12c0-46.080 15.36-92.16 46.080-128s71.68-61.44 122.88-71.68c-30.72-10.24-61.44-10.24-97.28-5.12 15.36-40.96 40.96-76.8 76.8-102.4s76.8-40.96 122.88-40.96c-46.080-35.84-92.16-56.32-148.48-71.68-51.2-15.36-107.52-20.48-163.84-10.24 97.28-61.44 209.92-92.16 322.56-92.16z" />
<glyph unicode="&#xe91a;" glyph-name="reddit" d="M629.76 448c-30.72 0-51.2-25.6-51.2-51.2s25.6-51.2 51.2-51.2 51.2 25.6 51.2 51.2-20.48 51.2-51.2 51.2zM445.44 396.8c0 30.72-25.6 51.2-51.2 51.2-30.72 0-51.2-25.6-51.2-51.2s25.6-51.2 51.2-51.2c30.72-5.12 51.2 20.48 51.2 51.2zM619.52 273.92c-20.48-20.48-71.68-30.72-107.52-30.72s-81.92 10.24-107.52 30.72c-5.12 5.12-15.36 5.12-20.48 0s-5.12-15.36 0-20.48c35.84-35.84 107.52-40.96 128-40.96s92.16 0 128 40.96c5.12 5.12 5.12 15.36 0 20.48s-15.36 5.12-20.48 0zM512 960c-281.6 0-512-230.4-512-512s230.4-512 512-512c281.6 0 512 230.4 512 512s-230.4 512-512 512zM808.96 381.44c0-5.12 0-15.36 0-20.48 0-112.64-133.12-209.92-296.96-209.92s-296.96 92.16-296.96 204.8c0 10.24 0 15.36 0 20.48-25.6 10.24-46.080 35.84-46.080 66.56 0 40.96 35.84 76.8 76.8 76.8 20.48 0 35.84-10.24 51.2-20.48 51.2 35.84 122.88 61.44 204.8 61.44l35.84 179.2c0 5.12 5.12 5.12 5.12 10.24 5.12 0 5.12 0 10.24 0l122.88-25.6c10.24 20.48 30.72 30.72 51.2 30.72 30.72 0 51.2-25.6 51.2-51.2s-25.6-51.2-51.2-51.2c-30.72 0-51.2 20.48-51.2 51.2l-112.64 20.48-35.84-158.72c76.8-5.12 148.48-25.6 199.68-61.44 15.36 15.36 30.72 20.48 51.2 20.48 40.96 0 76.8-35.84 76.8-76.8 0-30.72-20.48-56.32-46.080-66.56z" />
<glyph unicode="&#xe91b;" glyph-name="email" d="M921.6 857.6h-819.2c-56.32 0-102.4-46.080-102.4-102.4v-614.4c0-56.32 46.080-102.4 102.4-102.4h819.2c56.32 0 102.4 46.080 102.4 102.4v614.4c0 56.32-46.080 102.4-102.4 102.4zM921.6 652.8l-409.6-256-409.6 256v102.4l409.6-256 409.6 256v-102.4z" />
<glyph unicode="&#xe91c;" glyph-name="amazon-music-and-audible" horiz-adv-x="960" d="M468.992-60.992c-134.592 0.8-254.208 45.216-360.992 126.016-38.208 28.8-72.8 61.408-104.416 97.408l-3.2 3.808c-0.416 4.992-0.416 10.016-0.416 14.784 4.192-0.608 9.408-0.192 12.8-2.208 28.608-17.792 56-37.408 85.408-54.016 84.8-47.808 175.616-78.784 272.192-93.6 50.4-7.616 100.992-10.208 151.392-7.2 96.608 5.6 188.8 29.6 276.8 70.4 13.792 6.4 27.392 13.408 41.216 20.384 6.592 3.392 13.216 4.8 18.784-1.216 6.016-6.208 5.6-13.792 1.6-20.8-2.4-4-6.016-7.392-9.408-10.592-78.592-69.6-170.4-112.384-272.8-132.384-35.392-6.784-71.808-9.216-107.808-13.792l-1.184 3.008zM848.192 156.384c-19.392-1.792-40.992-4-62.592-6.016-4.8-0.384-9.6-0.8-14.208-0.384-5.408 0.384-6.4 3.616-3.392 7.616l7.008 5.792c22.784 15.392 48.608 22.016 75.392 25.6 25.408 3.392 50.784 2.592 75.616-4 16.8-4.384 20.384-6.4 19.2-26.016-3.392-51.392-19.808-98.208-57.216-135.808l-6.016-5.408-10.208-1.792 0.384 9.408c8.8 27.008 18.208 54.016 27.008 80.992 1.792 5.408 2.4 11.2 3.2 16.992 2.208 18.208-5.216 27.392-24.384 30.208-9.216 1.408-18.4 1.792-29.792 2.784zM554.592 558.4c-36.608 0.192-71.616-1.408-105.184-12.608-16.608-5.6-33.408-12.608-47.616-22.4-39.392-27.2-49.6-67.808-46.4-113.216 1.792-24 8.992-46.208 26.592-63.392 25.184-24.608 67.392-28 101.408-7.808 29.6 17.408 47.2 44.384 58.592 75.808 16.8 46.4 11.392 94.592 12.608 143.616zM581.6 287.392c-13.216-12-25.408-23.2-37.792-34.4-47.616-42.4-104-61.408-167.2-62.592-34.4-0.608-68 2.016-100.192 14.592-57.184 22.592-93.792 64.384-108.608 123.808-18.4 73.792-12.192 144.8 31.392 209.184 32.192 47.616 78.816 76 132.8 93.184 46.208 14.816 94.016 21.408 142.016 26.816 26.4 3.008 52.8 5.6 80.384 8.384-0.8 32.992 3.808 66.208-7.808 98.016-10.208 28.192-32 42.816-60.384 49.184-43.008 9.792-91.616-6.208-114.592-40-7.808-11.392-12.608-25.408-16.8-39.008-6.016-19.008-14.592-25.184-34.4-22.816-38.4 4.608-77.184 8.416-115.584 12.8-19.2 2.208-26.592 13.184-23.008 31.584 16.992 84.416 65.792 143.392 145.408 174.592 94.016 36.608 190.016 39.616 285.184 4.384 78.784-28.992 122.208-86.816 128-171.2 2.016-28.416 2.208-57.216 2.4-85.6 0.192-73.792 0.608-147.808-0.192-221.792-0.384-41.216 11.008-77.6 36-110.208 6.016-7.808 12.192-15.616 17.216-24 8.384-14.016 6.208-24.608-6.016-35.008-31.392-27.2-62.784-54.4-94.208-81.6-17.216-15.008-29.216-14.784-46.592-0.192-22.784 19.2-41.6 42.016-57.792 67.008-2.784 4.992-6.016 9.408-9.6 14.784z" />
<glyph unicode="&#xe91d;" glyph-name="amazon-music" d="M243.2 960c-134.4 0-243.2-108.8-243.2-243.2v-537.6c0-134.4 108.8-243.2 243.2-243.2h537.6c134.4 0 243.2 108.8 243.2 243.2v537.6c0 134.4-108.8 243.2-243.2 243.2h-537.6zM243.2 908.8h537.6c108.8 0 192-89.6 192-192v-537.6c0-108.8-89.6-192-192-192h-537.6c-108.8 0-192 89.6-192 192v537.6c0 108.8 83.2 192 192 192zM729.6 620.8c-12.8 0-25.6-12.8-25.6-25.6s12.8-25.6 25.6-25.6c12.8 0 25.6 12.8 25.6 25.6s-12.8 25.6-25.6 25.6zM128 544v-172.8h38.4v128c12.8 0 25.6 6.4 38.4 6.4 6.4 6.4 19.2 0 19.2-12.8v-115.2h38.4v108.8c0 6.4 0 6.4 0 12.8 12.8 0 25.6 6.4 38.4 6.4 12.8 6.4 19.2 0 25.6-12.8v-115.2h38.4v108.8c0 6.4 0 6.4 0 12.8-12.8 12.8-19.2 25.6-32 38.4-12.8 6.4-32 6.4-44.8 0s-25.6-6.4-38.4-12.8c-6.4 0-12.8 6.4-12.8 12.8-12.8 6.4-32 6.4-44.8 0-6.4 0-19.2-6.4-25.6-12.8v19.2h-38.4zM435.2 544h-38.4v-57.6c0-19.2 0-38.4 0-57.6 0-12.8 6.4-25.6 19.2-38.4s25.6-12.8 38.4-12.8c12.8 0 25.6 0 38.4 6.4 0 0 0 0 0 0v-6.4h38.4v166.4h-38.4v-128c-6.4 0-12.8-6.4-12.8-6.4-12.8-6.4-12.8-6.4-25.6-6.4s-25.6 12.8-25.6 25.6c0 19.2 0 38.4 0 57.6l6.4 57.6zM710.4 544v-172.8h38.4v172.8h-38.4zM857.6 544c-6.4 0-19.2 0-25.6-6.4-32-12.8-51.2-44.8-44.8-76.8 0-12.8 0-25.6 6.4-44.8 6.4-12.8 19.2-25.6 32-38.4 12.8-6.4 32-12.8 44.8-6.4 6.4 0 19.2 0 25.6 6.4v25.6c-19.2-6.4-44.8-6.4-57.6 6.4-12.8 6.4-25.6 32-25.6 51.2s6.4 38.4 25.6 51.2c12.8 6.4 38.4 6.4 51.2-6.4v25.6c-6.4 6.4-12.8 6.4-19.2 6.4 6.4 6.4 0 6.4-12.8 6.4zM627.2 544c-6.4 0-12.8 0-19.2-6.4-19.2-6.4-38.4-19.2-38.4-32-6.4-25.6 12.8-44.8 25.6-51.2s19.2-6.4 25.6-6.4c19.2-6.4 25.6-6.4 32-12.8 0-6.4 0-6.4 0-12.8s0-6.4-6.4-12.8-19.2-6.4-38.4-6.4c-12.8 0-32 6.4-44.8 12.8v-25.6c12.8-6.4 25.6-12.8 44.8-12.8s38.4-6.4 57.6 6.4c12.8 6.4 25.6 12.8 25.6 38.4s-19.2 38.4-32 44.8c-6.4 0-19.2 6.4-25.6 6.4s-32 6.4-32 25.6c0 6.4 12.8 12.8 19.2 12.8 19.2 6.4 44.8 0 64-6.4v25.6c-19.2 12.8-38.4 12.8-57.6 12.8zM870.4 300.8c-25.6 0-57.6-6.4-83.2-25.6-6.4-6.4-6.4-12.8 0-12.8 25.6 6.4 89.6 12.8 102.4-6.4 12.8-12.8-12.8-70.4-19.2-96-6.4-6.4 6.4-12.8 12.8-6.4 44.8 38.4 57.6 121.6 51.2 128-12.8 12.8-38.4 19.2-64 19.2zM121.6 281.6c0 0-6.4 0 0 0-6.4-6.4-6.4-6.4 0-12.8 51.2-38.4 108.8-70.4 166.4-96s121.6-38.4 192-44.8c64-6.4 134.4 0 192 19.2 64 19.2 121.6 44.8 179.2 76.8 6.4 6.4 6.4 12.8 6.4 12.8 0 6.4-12.8 6.4-19.2 6.4v0c-57.6-25.6-115.2-44.8-172.8-57.6s-121.6-19.2-179.2-12.8c-57.6 0-121.6 12.8-179.2 32-70.4 25.6-128 44.8-185.6 76.8v0c0 0 0 0 0 0z" />
<glyph unicode="&#xe91e;" glyph-name="apple-podcasts" d="M1024 748.8c0 19.2 0 32-6.4 51.2-25.6 96-102.4 160-211.2 160-198.4 0-396.8 0-595.2 0-102.4 0-179.2-64-204.8-160 0-12.8-6.4-19.2-6.4-32 0-211.2 0-428.8 0-640 0 0 0-6.4 0-6.4 12.8-83.2 57.6-140.8 140.8-172.8 19.2-6.4 32-6.4 51.2-12.8 217.6 0 428.8 0 646.4 0 6.4 0 19.2 0 25.6 6.4 102.4 25.6 166.4 108.8 166.4 211.2-6.4 192-6.4 396.8-6.4 595.2zM614.4 281.6c-6.4-51.2-12.8-102.4-19.2-153.6-6.4-32-25.6-51.2-57.6-51.2-19.2 0-32 0-51.2 0-32 0-57.6 19.2-64 51.2-6.4 51.2-12.8 96-19.2 147.2 0 57.6 32 102.4 83.2 121.6 6.4 0 12.8 0 19.2 6.4-57.6 6.4-89.6 44.8-83.2 89.6 6.4 51.2 44.8 83.2 89.6 83.2s83.2-38.4 89.6-83.2c6.4-44.8-25.6-83.2-76.8-96 6.4 0 6.4 0 6.4 0 51.2-12.8 89.6-57.6 83.2-115.2zM659.2 384c19.2 32 25.6 70.4 19.2 108.8-6.4 70.4-64 128-134.4 140.8-64 12.8-140.8-12.8-172.8-76.8-38.4-57.6-38.4-115.2-6.4-172.8 0-6.4 6.4-6.4 0-12.8-6.4-19.2-12.8-38.4-19.2-57.6-76.8 70.4-96 217.6 6.4 313.6 96 96 249.6 89.6 339.2-12.8s57.6-243.2-6.4-300.8c-6.4 19.2-12.8 38.4-19.2 57.6-6.4 0-6.4 6.4-6.4 12.8zM659.2 153.6c0 0 0 6.4 0 6.4 0 19.2 6.4 38.4 6.4 57.6 0 6.4 6.4 12.8 6.4 12.8 70.4 51.2 115.2 121.6 121.6 211.2 6.4 102.4-25.6 185.6-102.4 249.6-96 83.2-224 89.6-332.8 19.2-102.4-64-153.6-185.6-128-300.8 12.8-76.8 57.6-134.4 115.2-179.2 6.4 0 6.4-6.4 6.4-6.4 6.4-19.2 6.4-44.8 6.4-70.4-121.6 57.6-230.4 204.8-192 384 32 160 172.8 281.6 345.6 281.6s326.4-128 345.6-307.2c19.2-160-70.4-300.8-198.4-358.4z" />
<glyph unicode="&#xe91f;" glyph-name="pocketcast" d="M512 960c-281.6 0-512-230.4-512-512s230.4-512 512-512c281.6 0 512 230.4 512 512s-230.4 512-512 512zM672 441.6c0 83.2-70.4 153.6-153.6 153.6s-153.6-70.4-153.6-153.6c0-83.2 70.4-153.6 153.6-153.6v-89.6c-134.4 0-243.2 108.8-243.2 243.2s108.8 243.2 243.2 243.2c134.4 0 243.2-108.8 243.2-243.2h-89.6zM819.2 441.6c0 166.4-134.4 300.8-300.8 300.8s-300.8-134.4-300.8-300.8c0-166.4 134.4-300.8 300.8-300.8v-102.4c-224 0-403.2 179.2-403.2 403.2s179.2 403.2 403.2 403.2c224 0 403.2-179.2 403.2-403.2h-102.4z" />
<glyph unicode="&#xe920;" glyph-name="discord" horiz-adv-x="896" d="M358.4 527.648c-28.448 0-51.2-28.448-51.2-56.896s22.752-56.896 51.2-56.896c28.448 0 51.2 28.448 51.2 56.896s-22.752 56.896-51.2 56.896zM802.144 960h-694.048c-62.592 0-108.096-51.2-108.096-108.096v-688.352c0-62.592 45.504-108.096 108.096-108.096h591.648l-28.448 96.704 68.256-56.896 62.592-56.896 113.792-96.704v910.208c-11.392 56.896-56.896 108.096-113.792 108.096zM597.344 288.704c0 0-17.056 22.752-34.144 45.504 68.256 17.056 91.008 56.896 91.008 56.896-22.752-17.056-39.808-22.752-56.896-34.144-22.752-11.392-51.2-17.056-73.952-22.752-51.2-11.392-96.704-5.696-136.544 0-28.448 5.696-56.896 17.056-73.952 22.752-11.392 5.696-22.752 11.392-39.808 17.056 0 0 0 0 0 0v0c0 0 0 0 0 0v0c-17.056 11.392-22.752 17.056-22.752 17.056s22.752-39.808 91.008-62.592c-17.056-22.752-34.144-45.504-34.144-45.504-113.792 5.696-159.296 79.648-159.296 79.648 5.696 164.992 79.648 301.504 79.648 301.504 73.952 56.896 147.904 56.896 147.904 56.896l5.696-5.696c-96.704-28.448-136.544-68.256-136.544-68.256s11.392 5.696 28.448 17.056c56.896 22.752 96.704 34.144 119.456 34.144h5.696c28.448 0 68.256 5.696 102.4 0 51.2-5.696 102.4-22.752 159.296-51.2 0 0-39.808 39.808-130.848 68.256l5.696 5.696c11.392 0 73.952 0 142.208-51.2 0 0 73.952-136.544 73.952-301.504 11.392 0-34.144-73.952-153.6-79.648zM551.808 527.648c-28.448 0-51.2-28.448-51.2-56.896s22.752-56.896 51.2-56.896 51.2 28.448 51.2 56.896-22.752 56.896-51.2 56.896z" />
<glyph unicode="&#xe921;" glyph-name="flipboard" d="M0 960v-1024h1024v1024h-1024zM819.2 550.4h-204.8v-204.8h-204.8v-204.8h-204.8v614.4h614.4v-204.8z" />
<glyph unicode="&#xe922;" glyph-name="slack" d="M217.6 313.6c0-57.6-51.2-108.8-108.8-108.8s-108.8 51.2-108.8 108.8c0 57.6 51.2 108.8 108.8 108.8h108.8c0 0 0-108.8 0-108.8zM268.8 313.6c0 57.6 51.2 108.8 108.8 108.8s108.8-51.2 108.8-108.8v-268.8c0-57.6-51.2-108.8-108.8-108.8s-108.8 51.2-108.8 108.8c0 0 0 268.8 0 268.8zM377.6 742.4c-57.6 0-108.8 51.2-108.8 108.8s51.2 108.8 108.8 108.8 108.8-51.2 108.8-108.8v-108.8h-108.8zM377.6 691.2c57.6 0 108.8-51.2 108.8-108.8s-51.2-108.8-108.8-108.8h-268.8c-57.6 0-108.8 51.2-108.8 108.8s51.2 108.8 108.8 108.8h268.8zM806.4 582.4c0 57.6 51.2 108.8 108.8 108.8s108.8-51.2 108.8-108.8c0-57.6-51.2-108.8-108.8-108.8h-108.8v108.8zM755.2 582.4c0-57.6-51.2-108.8-108.8-108.8s-108.8 51.2-108.8 108.8v268.8c0 57.6 51.2 108.8 108.8 108.8s108.8-51.2 108.8-108.8v-268.8zM646.4 153.6c57.6 0 108.8-51.2 108.8-108.8s-51.2-108.8-108.8-108.8c-57.6 0-108.8 51.2-108.8 108.8v108.8c0 0 108.8 0 108.8 0zM646.4 204.8c-57.6 0-108.8 51.2-108.8 108.8s51.2 108.8 108.8 108.8h268.8c57.6 0 108.8-51.2 108.8-108.8s-51.2-108.8-108.8-108.8c0 0-268.8 0-268.8 0z" />
<glyph unicode="&#xe923;" glyph-name="stitcher" d="M870.4 960h-716.8c-83.2 0-153.6-70.4-153.6-153.6v-716.8c0-83.2 70.4-153.6 153.6-153.6h716.8c83.2 0 153.6 70.4 153.6 153.6v716.8c0 83.2-70.4 153.6-153.6 153.6zM249.6 294.4h-134.4v256h140.8v-256zM416 313.6h-140.8v281.6h140.8v-281.6zM582.4 281.6h-140.8v288h140.8v-288zM748.8 313.6h-140.8v300.8h140.8v-300.8zM908.8 332.8h-140.8v230.4h140.8v-230.4z" />
<glyph unicode="&#xe924;" glyph-name="search-a" d="M733.445 299.597l275.441-275.446c9.682-9.692 15.119-22.83 15.114-36.526s-5.453-26.829-15.14-36.511c-9.687-9.682-22.825-15.119-36.521-15.114s-26.829 5.453-36.511 15.14l-275.446 275.451c-82.34-63.78-185.882-93.793-289.565-83.937-103.683 9.861-199.716 58.844-268.564 136.996s-105.338 179.597-102.048 283.698c3.29 104.101 46.114 203.039 119.759 276.686s172.581 116.472 276.679 119.762c104.098 3.29 205.541-33.201 283.687-102.051 78.152-68.85 127.135-164.886 136.991-268.571 9.861-103.686-23.721-217.973-83.927-289.576h0.051zM409.619 243.231c81.471 0 159.602 32.364 217.212 89.974s89.974 135.745 89.974 217.218c0 81.473-32.364 159.608-89.974 217.219s-135.741 89.975-217.212 89.975c-81.47 0-159.605-32.365-217.213-89.975s-89.973-135.746-89.973-217.219c0-81.473 32.364-159.607 89.973-217.218s135.742-89.974 217.213-89.974z" />
<glyph unicode="&#xe925;" glyph-name="facebook-a" d="M513.575 960c-283.569 0-513.575-230.006-513.575-513.575s230.006-513.575 513.575-513.575 513.575 230.006 513.575 513.575-233.157 513.575-513.575 513.575zM601.797 399.163h-69.317v-214.252h-97.674v214.252h-72.468v94.523h72.468v56.714c0 72.468 40.96 110.277 107.126 110.277 31.508 0 63.015-3.151 63.015-3.151v-66.166h-37.809c-34.658 0-37.809-25.206-37.809-47.262v-47.262h78.769l-6.302-97.674z" />
<glyph unicode="&#xe926;" glyph-name="arrow-left-a" horiz-adv-x="2161" d="M2104.367 509.064h-1907.083l356.991 356.991c9.394 9.394 9.394 18.789 9.394 37.578s0 28.183-9.394 37.578c-28.183 28.183-65.761 28.183-84.55 0l-450.936-450.936c0 0 0 0 0 0-9.394-9.394-9.394-9.394-18.789-18.789 0-9.394 0-9.394 0-18.789 0 0 0 0 0 0s0 0 0 0v0c0 0 0 0 0 0s0 0 0 0 0 0 0 0 0 0 0 0 0 0 0 0 0 0 0 0v0c0 0 0 0 0 0s0 0 0 0v0c0 0 0 0 0 0s0 0 0 0 0 0 0 0 0 0 0 0 0 0 0 0v0c0 0 0 0 0 0s0 0 0 0v0c0 0 0 0 0 0s0 0 0 0 0 0 0 0 0 0 0 0 0 0 0 0 0 0 0 0c0-9.394 0-9.394 0-18.789 0 0 0 0 0 0s0 0 0 0 0 0 0 0 0 0 0 0 0 0 0 0 0 0 0 0 0 0 0 0 0 0 0 0 0 0 0 0 0 0 0 0 0 0 0 0 0 0 0 0 0 0 0 0v0c0 0 0 0 0 0s0 0 0 0 0 0 0 0 0 0 0 0 0 0 0 0 0 0 0 0 0 0 0 0 0 0 0 0c0-9.394 9.394-9.394 9.394-18.789 0 0 0 0 0 0v0c0 0 0 0 0 0s0 0 0 0 0 0 0 0 0 0 0 0 0 0 0 0 0 0 0 0 0 0 0 0l460.33-460.33c9.394-9.394 28.183-18.789 37.578-18.789s28.183 9.394 37.578 18.789c18.789 9.394 18.789 28.183 18.789 37.578s0 28.183-9.394 46.972l-356.991 356.991h1907.083c28.183 0 56.367 18.789 56.367 56.367s-28.183 56.367-56.367 56.367z" />
</font>
</defs>
</svg>
